* Dettagli Torrent   globale  | Commenti (0) 


- UFO - Interferenze (2018).720p.H264.italian.english.Ac3-sub.ita.eng-MIRCrew -


Download via torrent:
Categoria bittorrent BDRip
Descrizione
UFO - Interferenze 2018.720p.H264.italian.english.Ac3-sub.ita.eng-MIRCrew

by www.mircrew-releases.com


NO FOUND ONLY ORIGINAL RELEASE



My release is always in double track audio italian and Original audio
for select it use VLC or dvd player home
not use wmp

UFO - Interferenze 2018

Quality MIRCrew on HD 720p da  1,3 gb







Regia: Ryan Eslinger
Genere: Fantascienza
Paese: USA 2018



Alex Sharp, Ella Purnell, Benjamin Beatty, David Strathairn, Gillian Anderson




Derek, un brillante studente universitario, perseguitato fin da piccolo da un avvistamento UFO, crede che questi si aggirino tra gli aeroporti degli Stati Uniti. Con l'aiuto della sua ragazza, Natalie e della sua professoressa di matematica avanzata, la dottoressa Hendricks cerca di svelare il mistero, pur avendo l'agente speciale dell'FBI Franklin Ahls alle costole



A college student, who sees a UFO, uses his exceptional math skills to investigate the sighting with his friends while the FBI follows closely behind.









[spoiler]
General
Unique ID                                : 170908535605331401593512539888666483676 (0x8093C961B8CEF823AE13153BD7731BDC)
Complete name                            : UFO - Interferenze 2018.720p.ita.eng.sub.ita-MIRCrew\UFO - Interferenze 2018.720p.ita.eng.sub.ita-MIRCrew.mkv
Format                                   : Matroska
Format version                           : Version 2
File size                                : 1.32 GiB
Duration                                 : 1h 28mn
Overall bit rate                         : 2 139 Kbps
Movie name                               : MIRCrew
Encoded date                             : UTC 2018-09-23 20:38:53
Writing application                      : Lavf54.63.100
Writing library                          : Lavf54.63.100

Video
ID                                       : 1
Format                                   : AVC
Format/Info                              : Advanced Video Codec
Format profile                           : [email protected]
Format settings, CABAC                   : Yes
Format settings, ReFrames                : 2 frames
Codec ID                                 : V_MPEG4/ISO/AVC
Duration                                 : 1h 28mn
Bit rate                                 : 1 713 Kbps
Nominal bit rate                         : 1 800 Kbps
Width                                    : 1 280 pixels
Height                                   : 528 pixels
Display aspect ratio                     : 2.40:1
Original display aspect ratio            : 2.40:1
Frame rate mode                          : Variable
Frame rate                               : 23.976 fps
Color space                              : YUV
Chroma subsampling                       : 4:2:0
Bit depth                                : 8 bits
Scan type                                : Progressive
Bits/(Pixel*Frame)                       : 0.106
Stream size                              : 1.06 GiB (80%)
Writing library                          : x264 core 130 r2273
Encoding settings                        : cabac=1 / ref=2 / deblock=1:0:0 / analyse=0x1:0x131 / me=hex / subme=7 / psy=1 / psy_rd=1.00:0.00 / mixed_ref=0 / me_range=16 / chroma_me=1 / trellis=1 / 8x8dct=0 / cqm=0 / deadzone=21,11 / fast_pskip=1 / chroma_qp_offset=-2 / threads=6 / lookahead_threads=1 / sliced_threads=0 / nr=0 / decimate=1 / interlaced=0 / bluray_compat=0 / constrained_intra=0 / bframes=3 / b_pyramid=0 / b_adapt=1 / b_bias=0 / direct=3 / weightb=1 / open_gop=0 / weightp=2 / keyint=230 / keyint_min=23 / scenecut=40 / intra_refresh=0 / rc_lookahead=40 / rc=abr / mbtree=1 / bitrate=1800 / ratetol=1.0 / qcomp=0.60 / qpmin=10 / qpmax=69 / qpstep=4 / vbv_maxrate=24000 / vbv_bufsize=24000 / nal_hrd=none / ip_ratio=1.40 / aq=1:1.00
Language                                 : Italian
Default                                  : Yes
Forced                                   : No
DURATION                                 : 01:28:38.486000000
NUMBER_OF_FRAMES                         : 127516
NUMBER_OF_BYTES                          : 3075142663
_STATISTICS_WRITING_APP                  : mkvmerge v25.0.0 ('Prog Noir') 64-bit
_STATISTICS_WRITING_DATE_UTC             : 2018-09-23 20:38:53
_STATISTICS_TAGS                         : BPS DURATION NUMBER_OF_FRAMES NUMBER_OF_BYTES

Audio #1
ID                                       : 2
Format                                   : AC-3
Format/Info                              : Audio Coding 3
Mode extension                           : CM (complete main)
Codec ID                                 : A_AC3
Duration                                 : 1h 28mn
Bit rate mode                            : Constant
Bit rate                                 : 192 Kbps
Channel(s)                               : 2 channels
Channel positions                        : Front: L R
Sampling rate                            : 48.0 KHz
Bit depth                                : 16 bits
Compression mode                         : Lossy
Delay relative to video                  : 1mn 5s
Stream size                              : 122 MiB (9%)
Title                                    : AC3
Language                                 : Italian
Default                                  : Yes
Forced                                   : No
DURATION                                 : 01:28:23.712000000
NUMBER_OF_FRAMES                         : 165741
NUMBER_OF_BYTES                          : 212148480
_STATISTICS_WRITING_APP                  : mkvmerge v25.0.0 ('Prog Noir') 64-bit
_STATISTICS_WRITING_DATE_UTC             : 2018-09-23 20:38:53
_STATISTICS_TAGS                         : BPS DURATION NUMBER_OF_FRAMES NUMBER_OF_BYTES

Audio #2
ID                                       : 3
Format                                   : AC-3
Format/Info                              : Audio Coding 3
Mode extension                           : CM (complete main)
Codec ID                                 : A_AC3
Duration                                 : 1h 28mn
Bit rate mode                            : Constant
Bit rate                                 : 192 Kbps
Channel(s)                               : 2 channels
Channel positions                        : Front: L R
Sampling rate                            : 48.0 KHz
Bit depth                                : 16 bits
Compression mode                         : Lossy
Delay relative to video                  : 1mn 5s
Stream size                              : 122 MiB (9%)
Title                                    : AC3
Language                                 : English
Default                                  : No
Forced                                   : No
DURATION                                 : 01:28:26.816000000
NUMBER_OF_FRAMES                         : 165838
NUMBER_OF_BYTES                          : 254727168
_STATISTICS_WRITING_APP                  : mkvmerge v25.0.0 ('Prog Noir') 64-bit
_STATISTICS_WRITING_DATE_UTC             : 2018-09-23 20:38:53
_STATISTICS_TAGS                         : BPS DURATION NUMBER_OF_FRAMES NUMBER_OF_BYTES

Menu
00:00:00.000                             : :1
00:03:54.484                             : :2
00:08:24.504                             : :3
00:11:45.496                             : :4
00:17:35.429                             : :5
00:23:10.013                             : :6
00:31:04.570                             : :7
00:35:20.325                             : :8
00:40:28.800                             : :9
00:42:07.148                             : :10
00:44:50.019                             : :11
00:51:54.151                             : :12
00:59:45.997                             : :13
01:08:48.164                             : :14
01:14:23.082                             : :15
01:18:33.415                             : :16



[/spoiler]



Info: Per scaricare devi usare un client come uTorrent o Transmission
AnnounceURL
udp://tracker.coppersurfer.tk:6969/announce
Hash e99d69307d013833bd512b0b0678fcc3f0d14c5d
Peers seeds: 253 , leech: 24
Size 1.32 GB
Completato 6739x
Aggiunto 02.10.18 - 22:10:43
Uploader   robbyrs
Votazione (Voti: 0)


Condividi questo bittorrent:


html/blog:


bbcode/forum:




Aggiungi Commento


counter Sitemap