* Dettagli Torrent   globale  | Commenti (0) 


- Lauda - The Untold Story (2014-18).720p.H264.italian.english.Ac3-5.1.sub.ita-MIRCrew -


Download via torrent:
Categoria bittorrent BDRip
Descrizione
33 Days - Lauda - The Untold Story 2014-18.720p.H264.italian.english.Ac3-5.1.sub.ita-MIRCrew

Tutti i film e altro della MIRCrew li trovate qui:  www.mircrew-releases.com


NO FOUND ONLY ORIGINAL RELEASE



My release is always in double track audio italian and Original audio
for select it use VLC or dvd player home
not use wmp

Lauda - The Untold Story - 33 Days 2014-18

Quality MIRCrew on HD 720p da  1,6 gb








Director: Hannes M. Schalle
Writer: Hannes M. Schalle
Producers:Michael Cowan, Günther Mitterhuber, Hannes M. Schalle



(Interviews with)

Niki Lauda
Sir Jackie Stewart
David Coulthard
Mark Webber
Lewis Hamilton
Nico Rosberg
Hans-Joachim Stuck
Jochen Mass



Niki Lauda e' l'esempio piu' limpido di un uomo che si e' dedicato anima e corpo, rischiando la propria vita, arrivando fino alla soglia tra la vita e la morte, per questo sport



In 1976 Niki Lauda survived one of the most famous crashes in Formula One history. Using previously unseen footage, Lauda: The Untold Story explains what happened on that fateful, and near ...









[spoiler]
General
Unique ID                                : 283213427840970441132578606238128216383 (0xD510EC10EB00A1B48C8DDDC5B3A5193F)
Complete name                            : Lauda-The Untold Story 2018.720p.ita.eng.sub.ita-MIRCrew\Lauda-The Untold Story 2018.720p.ita.eng.sub.ita-MIRCrew.mkv
Format                                   : Matroska
Format version                           : Version 2
File size                                : 1.63 GiB
Duration                                 : 1h 30mn
Overall bit rate                         : 2 567 Kbps
Movie name                               : MIRCrew
Encoded date                             : UTC 2018-10-03 15:36:57
Writing application                      : Lavf54.63.100
Writing library                          : Lavf54.63.100

Video
ID                                       : 1
Format                                   : AVC
Format/Info                              : Advanced Video Codec
Format profile                           : [email protected]
Format settings, CABAC                   : Yes
Format settings, ReFrames                : 2 frames
Codec ID                                 : V_MPEG4/ISO/AVC
Duration                                 : 1h 30mn
Bit rate                                 : 1 748 Kbps
Nominal bit rate                         : 1 850 Kbps
Width                                    : 1 280 pixels
Height                                   : 720 pixels
Display aspect ratio                     : 16:9
Frame rate mode                          : Variable
Frame rate                               : 25.000 fps
Color space                              : YUV
Chroma subsampling                       : 4:2:0
Bit depth                                : 8 bits
Scan type                                : Progressive
Bits/(Pixel*Frame)                       : 0.076
Stream size                              : 1.11 GiB (68%)
Writing library                          : x264 core 130 r2273
Encoding settings                        : cabac=1 / ref=2 / deblock=1:0:0 / analyse=0x1:0x131 / me=hex / subme=7 / psy=1 / psy_rd=1.00:0.00 / mixed_ref=0 / me_range=16 / chroma_me=1 / trellis=1 / 8x8dct=0 / cqm=0 / deadzone=21,11 / fast_pskip=1 / chroma_qp_offset=-2 / threads=6 / lookahead_threads=1 / sliced_threads=0 / nr=0 / decimate=1 / interlaced=0 / bluray_compat=0 / constrained_intra=0 / bframes=3 / b_pyramid=0 / b_adapt=1 / b_bias=0 / direct=3 / weightb=1 / open_gop=0 / weightp=2 / keyint=250 / keyint_min=25 / scenecut=40 / intra_refresh=0 / rc_lookahead=40 / rc=abr / mbtree=1 / bitrate=1850 / ratetol=1.0 / qcomp=0.60 / qpmin=10 / qpmax=69 / qpstep=4 / vbv_maxrate=24000 / vbv_bufsize=24000 / nal_hrd=none / ip_ratio=1.40 / aq=1:1.00
Language                                 : Italian
Default                                  : Yes
Forced                                   : No
DURATION                                 : 01:30:38.760000000
NUMBER_OF_FRAMES                         : 135969
NUMBER_OF_BYTES                          : 5991461333
_STATISTICS_WRITING_APP                  : mkvmerge v9.7.1 ('Pandemonium') 64bit
_STATISTICS_WRITING_DATE_UTC             : 2018-09-23 14:06:44
_STATISTICS_TAGS                         : BPS DURATION NUMBER_OF_FRAMES NUMBER_OF_BYTES

Audio #1
ID                                       : 2
Format                                   : AC-3
Format/Info                              : Audio Coding 3
Mode extension                           : CM (complete main)
Codec ID                                 : A_AC3
Duration                                 : 1h 30mn
Bit rate mode                            : Constant
Bit rate                                 : 384 Kbps
Channel(s)                               : 6 channels
Channel positions                        : Front: L C R, Side: L R, LFE
Sampling rate                            : 48.0 KHz
Bit depth                                : 16 bits
Compression mode                         : Lossy
Delay relative to video                  : 1mn 5s
Stream size                              : 249 MiB (15%)
Language                                 : Italian
Default                                  : No
Forced                                   : No
DURATION                                 : 01:30:39.328000000
NUMBER_OF_FRAMES                         : 169979
NUMBER_OF_BYTES                          : 435146240
_STATISTICS_WRITING_APP                  : mkvmerge v9.7.1 ('Pandemonium') 64bit
_STATISTICS_WRITING_DATE_UTC             : 2018-09-23 14:06:44
_STATISTICS_TAGS                         : BPS DURATION NUMBER_OF_FRAMES NUMBER_OF_BYTES

Audio #2
ID                                       : 3
Format                                   : AC-3
Format/Info                              : Audio Coding 3
Mode extension                           : CM (complete main)
Codec ID                                 : A_AC3
Duration                                 : 1h 30mn
Bit rate mode                            : Constant
Bit rate                                 : 384 Kbps
Channel(s)                               : 6 channels
Channel positions                        : Front: L C R, Side: L R, LFE
Sampling rate                            : 48.0 KHz
Bit depth                                : 16 bits
Compression mode                         : Lossy
Delay relative to video                  : 1mn 5s
Stream size                              : 249 MiB (15%)
Language                                 : English
Default                                  : No
Forced                                   : No
DURATION                                 : 01:30:39.350000000
NUMBER_OF_FRAMES                         : 509939
NUMBER_OF_BYTES                          : 1025998464
_STATISTICS_WRITING_APP                  : mkvmerge v9.7.1 ('Pandemonium') 64bit
_STATISTICS_WRITING_DATE_UTC             : 2018-09-23 14:06:44
_STATISTICS_TAGS                         : BPS DURATION NUMBER_OF_FRAMES NUMBER_OF_BYTES

Menu
00:00:00.000                             : 01)00:00:00:000
00:02:59.320                             : 02)00:02:59:320
00:10:59.760                             : 03)00:10:59:760
00:17:15.640                             : 04)00:17:15:640
00:21:51.680                             : 05)00:21:51:680
00:26:51.320                             : 06)00:26:51:320
00:32:44.080                             : 07)00:32:44:080
00:38:31.200                             : 000:38:31:200
00:42:40.920                             : 09)00:42:40:920
00:49:14.720                             : 10)00:49:14:720
00:56:36.880                             : 11)00:56:36:880
01:02:22.440                             : 12)01:02:22:440
01:09:54.800                             : 13)01:09:54:800
01:15:03.520                             : 14)01:15:03:520
01:21:36.720                             : 15)01:21:36:720
01:26:42.760                             : 16)01:26:42:760
01:30:38.914                             : 17)01:30:38:914




[/spoiler]



Info: Per scaricare devi usare un client come uTorrent o Transmission
AnnounceURL
udp://tracker.coppersurfer.tk:6969/announce
Hash 4932f06823791cb58dcacd4f4c2896a000197595
Peers seeds: 39 , leech: 6
Size 1.63 GB
Completato 737x
Aggiunto 04.10.18 - 20:10:25
Uploader   robbyrs
Votazione (Voti: 0)


Condividi questo bittorrent:


html/blog:


bbcode/forum:




Aggiungi Commento


counter Sitemap