* Dettagli Torrent   globale  | Commenti (0) 


- Dogman (2018).720p.H264.italian.Ac3-5.1.sub.NUita-MIRCrew -


Download via torrent:
Categoria bittorrent BDRip
Descrizione
Dogman 2018.720p.H264.italian.Ac3-5.1.sub.NUita-MIRCrew


by www.mircrew-releases.com


NO FOUND ONLY ORIGINAL RELEASE



My release is always in double track audio italian and Original audio
for select it use VLC or dvd player home
not use wmp

Dogman 2018

Quality MIRCrew on HD 720p da  1,6 gb


SOTTOTITOLI ITALIANI PER NON UDENTI INCLUSI








GENERE: Drammatico
ANNO: 2018
REGIA: Matteo Garrone
PAESE: Italia, Francia
DURATA: 102 Min



Marcello Fonte, Edoardo Pesce, Nunzia Schiano, Adamo Dionisi, Francesco Acquaroli, Alida Calabria, Gianluca Gobbi



Ispirato liberamente a un fatto di cronaca nera accaduto trent'anni fa, Dogman è il nuovo film di Matteo Garrone che racconta la storia cupa e violenta di Marcello (Marcello Fonte).



Marcello, a small and gentle dog groomer, finds himself involved in a dangerous relationship of subjugation with Simone, a former violent boxer who terrorizes the entire neighborhood. In an..







General
Unique ID                                : 205709082889965187586581012543472439468 (0x9AC220D573C2F2C638DFD9674E8090AC)
Complete name                            : Dogman 2018.720p.h264.ita.sub.NUita-MIRCrew\Dogman 2018.720p.h264.ita.sub.NUita-MIRCrew.mkv
Format                                   : Matroska
Format version                           : Version 2
File size                                : 1.63 GiB
Duration                                 : 1h 42mn
Overall bit rate                         : 2 270 Kbps
Movie name                               : MIRCrew
Encoded date                             : UTC 2018-09-17 08:45:52
Writing application                      : Lavf54.63.100
Writing library                          : Lavf54.63.100

Video
ID                                       : 1
Format                                   : AVC
Format/Info                              : Advanced Video Codec
Format profile                           : [email protected]
Format settings, CABAC                   : Yes
Format settings, ReFrames                : 2 frames
Codec ID                                 : V_MPEG4/ISO/AVC
Duration                                 : 1h 42mn
Bit rate                                 : 1 900 Kbps
Width                                    : 1 280 pixels
Height                                   : 528 pixels
Display aspect ratio                     : 2.40:1
Frame rate mode                          : Variable
Frame rate                               : 24.000 fps
Color space                              : YUV
Chroma subsampling                       : 4:2:0
Bit depth                                : 8 bits
Scan type                                : Progressive
Bits/(Pixel*Frame)                       : 0.117
Stream size                              : 1.32 GiB (81%)
Writing library                          : x264 core 130 r2273
Encoding settings                        : cabac=1 / ref=2 / deblock=1:0:0 / analyse=0x1:0x131 / me=hex / subme=7 / psy=1 / psy_rd=1.00:0.00 / mixed_ref=0 / me_range=16 / chroma_me=1 / trellis=1 / 8x8dct=0 / cqm=0 / deadzone=21,11 / fast_pskip=1 / chroma_qp_offset=-2 / threads=3 / lookahead_threads=1 / sliced_threads=0 / nr=0 / decimate=1 / interlaced=0 / bluray_compat=0 / constrained_intra=0 / bframes=3 / b_pyramid=0 / b_adapt=1 / b_bias=0 / direct=3 / weightb=1 / open_gop=0 / weightp=2 / keyint=240 / keyint_min=24 / scenecut=40 / intra_refresh=0 / rc_lookahead=40 / rc=abr / mbtree=1 / bitrate=1900 / ratetol=1.0 / qcomp=0.60 / qpmin=10 / qpmax=69 / qpstep=4 / vbv_maxrate=24000 / vbv_bufsize=24000 / nal_hrd=none / ip_ratio=1.40 / aq=1:1.00
Language                                 : Italian
Default                                  : Yes
Forced                                   : No
DURATION                                 : 01:42:49.792000000
NUMBER_OF_FRAMES                         : 148075
NUMBER_OF_BYTES                          : 6825241374
_STATISTICS_WRITING_APP                  : mkvmerge v9.7.1 ('Pandemonium') 64bit
_STATISTICS_WRITING_DATE_UTC             : 2018-09-07 09:41:16
_STATISTICS_TAGS                         : BPS DURATION NUMBER_OF_FRAMES NUMBER_OF_BYTES

Audio
ID                                       : 2
Format                                   : AC-3
Format/Info                              : Audio Coding 3
Mode extension                           : CM (complete main)
Codec ID                                 : A_AC3
Duration                                 : 1h 42mn
Bit rate mode                            : Constant
Bit rate                                 : 384 Kbps
Channel(s)                               : 6 channels
Channel positions                        : Front: L C R, Side: L R, LFE
Sampling rate                            : 48.0 KHz
Bit depth                                : 16 bits
Compression mode                         : Lossy
Delay relative to video                  : 1mn 5s
Stream size                              : 282 MiB (17%)
Language                                 : Italian
Default                                  : No
Forced                                   : No
DURATION                                 : 01:42:50.784000000
NUMBER_OF_FRAMES                         : 192837
NUMBER_OF_BYTES                          : 493662720
_STATISTICS_WRITING_APP                  : mkvmerge v9.7.1 ('Pandemonium') 64bit
_STATISTICS_WRITING_DATE_UTC             : 2018-09-07 09:41:16
_STATISTICS_TAGS                         : BPS DURATION NUMBER_OF_FRAMES NUMBER_OF_BYTES

Menu
00:00:00.000                             : 01)00:00:00:000
00:09:22.833                             : 02)00:09:22:833
00:23:21.125                             : 03)00:23:21:125
00:27:55.666                             : 04)00:27:55:666
00:33:13.458                             : 05)00:33:13:458
00:45:37.625                             : 06)00:45:37:625
00:53:16.166                             : 07)00:53:16:166
01:02:54.541                             : 001:02:54:541
01:09:33.916                             : 09)01:09:33:916
01:15:07.333                             : 10)01:15:07:333
01:25:24.208                             : 11)01:25:24:208
01:37:30.125                             : 12)01:37:30:125





Info: Per scaricare devi usare un client come uTorrent o Transmission
AnnounceURL
udp://tracker.coppersurfer.tk:6969/announce
Hash 76b5a23f333c3b979d6547c70d7130a134d85a6e
Peers seeds: 112 , leech: 11
Size 1.63 GB
Completato 1737x
Aggiunto 05.10.18 - 19:10:32
Uploader   robbyrs
Votazione (Voti: 0)


Condividi questo bittorrent:


html/blog:


bbcode/forum:




Aggiungi Commento


counter Sitemap